Black singles connection

Intellectual Property - Spark Networks


Singles with m s Online

- People YOU click with. (The linked hearts logo) THE community FOR. Our clients include CEOs, professional athletes and doctors, lawyers, investors, entrepreneurs, professional models and cheerleaders, engineers, and movie directors, just to name a few. And where 'Before I Die' is a more painful track, the misnomer 'Leader of the Broken Hearts' actually comes off as one of the more triumphant songs on the disc. It all begins with online dating in Jacksonville. Find Love with Online Dating in Jacksonville. Wav Pre-gap length 0:00:01.40 Peak level.2 Track quality 100.0 Test CRC bfbc3DEC Copy CRC bfbc3DEC Cannot be verified as accurate (confidence 15) FAC9318D, AccurateRip returned 21DD35C5 Copy OK Track 8 Filename F:Flac08 - Voodoo People. Find your perfect match Now. Poison (95 Eq).

Urban, singles, connection,.12.13 (2011) » SeVMusic

- Can mysticism lead to a love connection? One writer road-tests a soothsayers secrets. Before I Die.' The song, which incorporates some early piano work before fully rocking out, talks about pushing a loved one away while still feeling the urge to live for them. Register for free today to see your compatible matches, once you think you found the one, sign up and start chatting with local singles today! November 2009, 22:58 The Prodigy / Their Law (CD2) Used drive : asus DRW-2014L1T Adapter: 3 ID: 1 Read mode : Secure Utilize accurate stream : Yes Defeat audio cache : Yes Make use of C2 pointers. Flac - cdda (99) Out Of Space. Spark Networks is the copyright owner of all material contained on Spark Networks owned and operated websites. Wav Pre-gap length 0:00:02.00 Peak level.0 Track quality 100.0 Test CRC 087F25B8 Copy CRC 087F25B8 Cannot be verified as accurate (confidence 63) 264EA306, AccurateRip returned 7399B35F Copy OK Track 2 Filename F:Flac02 - Back 2 School.

Jacksonville Dating Site Local

- Can A Psychic Help You Find Your Soul Mate? The black singles connection is there to help you find someone that you will be compatible with. Jewish Mingle, jRewards, justplay! Whether you want to cast a line from the George Crady pier, crack open a cold one on King Street, or wander the galleries of the Contemporary Museum of Art, there are local singles ready to join you! Still Swingin' ' not only the perfect song for a lead single, but essentially the anthem that describes their career path. Under My Wheels (Remix). EHarmonys Jacksonville dating site uses our scientifically proven 32 Dimensions of Compatibility to introduce local singles that share common interests and core values for deeper connections.

Papa Roach, The, connection, album Review

- Match com match com reg the leading online dating site for singles personals. The pizza love connection. 20: : Meet single Methodista at Methodist Singles Connection. 14: : Discover great singles near you. 4: : Millions of m profiles mean millions of possibilities to meet your match. We Are The Ruffest. Want to date singles across color line in your city or around the world, join us and a wonderful world is waiting for you! Wav Peak level.0 Track quality 100.0 Test CRC 3849058D Copy CRC 3849058D Cannot be verified as accurate (confidence 62) 50549ECE, AccurateRip returned B7D5DB74 Copy OK Track 7 Filename F:Flac07 - Voodoo Beats. Wav Pre-gap length 0:00:02.00 Peak level.9 Track quality 100.0 Test CRC D9FB2CB7 Copy CRC D9FB2CB7 Cannot be verified as accurate (confidence 15) 26253DCE, AccurateRip returned 8A8A4F15 Copy OK Track 2 Filename F:Flac02 - Their Law (05 Edit).wav Pre-gap length. Esperance and Horton also drive 'Wish You Never Met Me' with a killer bass opening and wailing guitar solo.

The Andrea True, connection

- Template not found: /templates/Ufology_new/l. The prodigy their law the singles cd set sony music japan 2005. Read mode : Secure, utilize accurate stream : Yes, defeat audio cache : Yes. 7: : m: is the largest and most active Christian singles website. Wav Peak level.7 Track quality 100.0 Test CRC 1EF1CC64 Copy CRC 1EF1CC64 Cannot be verified as accurate (confidence 62) 5BDE095F, AccurateRip returned D17AAC73 Copy OK Track 8 Filename F:Flac08 - Out Of Space (Audio Bullys Remix).wav Peak. Its time to try a sure bet. Easy and exciting matchmaking. On it, Shaddix revels in the pain that comes from a broken heart, knowing that even though a relationship has ended, there's an elation that came from putting it all on the line that's made him feel alive like never before. Wav Peak level.0 Track quality 100.0 Test CRC ED0D8966 Copy CRC ED0D8966 Cannot be verified as accurate (confidence 63) 8fbfddda, AccurateRip returned 85BEA5EC Copy OK Track 3 Filename F:Flac03 - Voodoo People (Pendulum Remix).wav Peak level.0. The roar of the Atlantic and perpetual Florida sunshine make living in Jacksonville feel more like vacationing on a tropical oasis!

Match Making Place - Matching and dating

- Singles on Our Jacksonville Online Dating Site. Find Truly Compatible Jacksonville. There are Jacksonville singles out there who connect with you on all the right levels, you just might need a point in the right direction. The eHarmony Personality Profile begins the exciting journey toward finding your true love. Serial Thrilla (Live). CollegeLuv, college Love, compass, cupid (logo) m m (logo datemate. Join other Christian singles using chat, email, photos, and quick messaging. Absolutely the best way to meet other Christian singles!

Absolutely speed dating events in kansas city mo matchless theme

- Singles for a Deeper, connection Loving Relationship. Its the connection of this music to the fans. Out Of Space (Audio Bullys Remix). JBlog, jDate, jDate (logo jDating, jDater, jDate Mobile. Command line compressor : C:Program Files (x86)Exact Audio Copyflacflac. Sometimes though, relying on fate alone can take a little longer than we would like. TOC of the extracted CD, track Start Length Start sector End sector :00.00 4:42. We enhance the member experience with daily horoscopes photo ratings free e-greeting cards and the interactive FriendFinder Magazine written by and for our members. For African-American, American Indian, Hispanic, Caucasian singles, Asian, etc.